~~~


Хотите такие же? Вам сюда!

Категории раздела
Аудио [3120]
Скачать аудиозаписи
Аудио+Видео [50]
Скачать аудио + видео
Видео [3376]
Скачать видеозаписи
Новости [38]
Объявления
Календарь
Архив записей




Главная » 2014 » Апрель » 21 » Пётр Ильич Чайковский. Симфония No. 6 «Патетическая»
18:22
Пётр Ильич Чайковский. Симфония No. 6 «Патетическая»


Пётр Ильич Чайковский
1840-1893

Симфония No. 6 си минор, соч.74
«Патетическая»


1. Adagio. Allegro non troppo
2. Allegro con grazia
3. Allegro molto vivace
4. Adagio lamentoso. 3 Andante




Российский Национальный Оркестр



Дирижёр - Михаил Васильевич Плетнёв


Запись в Большом зале Московской консерватории во время концерта "Вану Клиберну посвящается" - 24 февраля 2014 года

ГТРК "Культура"
Продолжительность 49mn 37s

TVRip by Dirigent
avi

Video: Xvid 720x400 (16:9) 25fps 3498kbps [Video]
Audio: Dolby AC3 48000Hz stereo 256kbps [Audio]
1.3 Gb





Категория: Видео | Просмотров: 1681 | Добавил(а): Dirigent
Теги: Михаил Плетнёв, Пётр Чайковский, Патетическая | Рейтинг: 1.0/10


Вас может заинтересовать:


Всего комментариев: 6

Комментирует juri221 | Дата публикации: 2014 Апр 22 в 03:37 |
0

Большое спасибо за П.И. Чайковского. Прошу меня извинить. Вполне возможно, что ошибаюсь, но звук на этой видеозаписи у меня, к сожалению, получился не стерео. Верно ли это или только у меня так ошибочно скачалось?
С уважением,
juri221
Спам

Комментирует Dirigent | Дата публикации: 2014 Апр 22 в 19:10 |
0

Стерео. Однозначно.

Video
ID : 0
Format : MPEG-4 Visual
Format profile : Advanced Simple@L5
Format settings, BVOP : Yes
Format settings, QPel : No
Format settings, GMC : No warppoints
Format settings, Matrix : Default (H.263)
Codec ID : XVID
Codec ID/Hint : XviD
Duration : 49mn 37s
Bit rate : 3 498 Kbps
Width : 720 pixels
Height : 400 pixels
Display aspect ratio : 16:9
Frame rate : 25.000 fps
Color space : YUV
Chroma subsampling : 4:2:0
Bit depth : 8 bits
Scan type : Progressive
Compression mode : Lossy
Bits/(Pixel*Frame) : 0.486
Stream size : 1.21 GiB (93%)
Writing library : XviD 64

Audio
ID : 1
Format : AC-3
Format/Info : Audio Coding 3
Mode extension : CM (complete main)
Format settings, Endianness : Big
Codec ID : 2000
Duration : 49mn 37s
Bit rate mode : Constant
Bit rate : 256 Kbps
Channel count : 2 channels
Channel positions : Front: L R
Sampling rate : 48.0 KHz
Bit depth : 16 bits
Compression mode : Lossy
Stream size : 90.9 MiB (7%)
Alignment : Aligned on interleaves
Interleave, duration : 32 ms (0.80 video frame)
Спам

Комментирует juri221 | Дата публикации: 2014 Апр 23 в 01:08 |
0

Уважаемый Dirigent!
Тысячу раз прошу прощения.
Вы это слушали, скажем в стереонаушники, или вполне доверились представленному протоколу?
Вы извините, но всегда в подобных случаях вспоминается К. Прутков, с его вечнозелёным афоризмом: "Если на клетке слона прочтёшь надпись «буйвол», не верь глазам своим." :)
Послушайте сами, сравните с настоящим стерео, возможно, в таком "стерео" и Вы тоже разочаруетесь...
Теперь о моих весьма скромных задействованных приборах.
Аудиокарта: M-Audio 24-96 Delta serie.
Микшерский пульт: Mackie 1402 -VLC Pro
Стереонаушники: Sony MDR - CD 1700 Digital Reference.
Популярный и "всеядный" Software Media Player VLC.
И пусть небольшой, но всё же более чем 50-летний опыт профессионального музыканта...
С уважением,
juri221
Спам

Комментирует Dirigent | Дата публикации: 2014 Апр 23 в 08:25 |
0

Глубокоуважаемый juri221.
Огульные обвинения в непрофессионализме, я полагаю, не будут приветствоваться нигде. Это первое. Второе. То, что показала и выдала ТК "Культура", то Вы здесь и видите.
Третье. Думать, что я выкладываю на свой сайт материалы, не прослушав их, по крайней мере - неосмотрительно.
Четвертое. Расписывать: сколько лет стажа, заслуги перед Родиной, регалии, etc. не буду.
Пятое. Буду рад, если Вы возьмете на себя труд по записям с телеканалов, улучшению этих записей, но без искусственного повышения битрейта, без искусственного микширования, как это делают некоторые и пр.
Успехов.
p.s. Жду Ваших записей и извинений. Удачи.
Спам

Комментирует juri221 | Дата публикации: 2014 Май 01 в 12:29 |
0

Уважаемый Dirigent!
Если Вас правильно понял, то Вы обиделись.
И совершенно напрасно.
Вас я обидеть не хотел, и, если Вам недостаточно тех тысяч извинений, которыми начинаются мои комментарии и на которые, думаю, имею право, то считайте этот пост 1001- извинением.
Это раз! :)
В непрофессионализме Вас никто, включая меня, никогда не упрекал, ни огульно, ни как либо иначе. Совсем наоборот. Мы все, и гости, и участники "Интермеццо" искренне рады наличию и успешному функционированию этого сайта. Уверен, что именно благодаря таким энтузиастам, как Вы, сайт "Интермеццо" жив и процветает. Не надо объяснять, сколько труда вложено авторами выкладок (а у Вас их немало!), сколько времени затрачено на то, чтобы безвозмездно поделиться своей коллекцией, видео/аудио записями. И, как мне видится, наверно не стоит реагировать на простой вопрос о (возможно!) недоброкачественном звуке, личной обидой, считать себя оскорблённым (синдром "Дождя"...).
Взять на себя труд по записи российского TV я не могу, поскольку такового не имею в силу географических причин. И поэтому благодарен всем, кто такие записи делает для нас.
Ну, а насчёт качества звука российских TV, так здесь, как я понял, нет ни Вашей, ни моей вины.
Спасибо Вам за Ваш труд, и не обижайтесь!
Всех благ!
С уважением,
juri221
Спам

Комментирует Dirigent | Дата публикации: 2014 Май 01 в 12:35 |
0

Это уже демагогия. Вроде бы извинения, а вроде бы намёки на разные синдромы. Избавьте.
Спам
Добавлять комментарии могут только зарегистрированные пользователи. Регистрация займет не больше 3 минут. Не работает ссылка? Напишите об этом в форме обратной связи. Не забудьте приложить ссылку на материал.
[ Регистрация | Вход ]
Важное




Читать IntermezzoTwit в Твиттере


Мы ВКонтакте

Профиль

Вторник 2017 Окт 17
10:26

Ваш IP: 54.80.211.135



Яндекс-поиск
Поиск
по заголовкам

по всему сайту
Наша кнопка


Материалы по тегам
Поиск нот
Скачать бесплатно ноты, табы, минусовки, тексты песен, mp3
Поиск бесплатных нот, табов, минусовок, текстов песен и mp3

Copyright: Интермеццо. Интернет-библиотека классической музыки. © 2011 - 2017
Яндекс цитирования Яндекс.Метрика