~~~


Хотите такие же? Вам сюда!

Категории раздела
Аудио [3024]
Скачать аудиозаписи
Аудио+Видео [50]
Скачать аудио + видео
Видео [3333]
Скачать видеозаписи
Новости [37]
Объявления
Календарь
Архив записей




Главная » 2013 » Май » 30 » Григорианские хоралы в исполнении ансамбля "Hortus Musicus"
11:50
Григорианские хоралы в исполнении ансамбля "Hortus Musicus"
    



 Ансамбль старинной музыки Hortus musicus был создан в 1972 году по инициативе скрипача Андреса Мустонена (в то время – студента Таллиннской консерватории) и в настоящее время является самым долговечным ансамблем старинной музыки в Восточной Европе.

Коллектив сразу же нашел свою нишу в музыкальном мире и стал специализироваться на старинной музыке, которая практически не звучала в тогдашнем Советском Союзе и Европе. Это была та музыка, которая соответствовала энергичному стремлению молодых артистов обнаружить нечто оригинальное и неизвестное.

Исполнение музыки для Hortus musicus в первую очередь (и часто в отличие от европейских коллег) характеризуется творческим подходом и отсутствием стереотипов в отношении к сочинениям, отдаленным по времени. Не вступая в противоречие с популярным сегодня «аутентичным» подходом к исполнительству, Hortus не ставит его во главу угла своего творчества. Поэтому концерты ансамбля всегда кажутся актуальными. На них звучит музыка людей, живущих в наше время.

За годы существования ансамбля на его концертах «прошла» вся история европейской музыки, от VIII века до наших дней: грегорианский хорал – органумы – средневековая литургическая драма – гимны и мотеты – франко-фламандская школа – мастера итальянского треченто – полифония XVI века – французские шансон и итальянские мадригалы – фроттолы и вилланеллы – сюиты из ренессансных танцев со всей Европы – старинные сонаты и светские крупные сочинения мастеров барокко XVII-XVIII вв. – музыка XX века (часто созданная специально для ансамбля).

Исполнение новейшей музыки ставит перед ансамблем особые задачи, прежде всего, в приспособлении возможностей старинных инструментов с их звуком и динамикой к современному музыкальному языку. С другой стороны, это позволяет и современной музыке обогащать свою палитру неповторимым звучанием инструментов эпохи Возрождения. Современная музыка, исполняемая ансамблем, несет в себе те же ценности, что мы находим в ранней музыке: чистоту и ясность формы, гармонию и красоту в простых вещах.

За свою более чем 35-летнюю деятельность Ансамбль дал концерты в большинстве европейских стран, США, Японии, Израиле и на территории бывшего Советского Союза, а также принял участие во многих фестивалях старинной музыки. Ансамбль Hortus musicus записал 35 программ, в т.ч. на лейблах Erdenklang, Musica Svecia, Forte и Finlandia Records.( По материалам сайта 

http://meloman.ru/?id=1511 )



Григорианский хорал - традиционное литургическое пение римско-католической церкви, носящее имя Папы Римского Григория Великого, он говорил о хорале как о Песне Ангелов. Распевы просты и в то же время проницательны - в них Небеса сходятся с Землёю. Отчасти они просты потому что это выдержки из Библии, это слова Господа.
Подробнее о григорианском хорала можно прочесть:
 здесь http://www.frateroleg.name/library/moskva1.htm и
 здесьhttp://www.toletanus.ru/?id=bibliotheca.read.2.Grigorianskij_xoral


Программа фильма-концерта

Kyrie
Christe Fili Dei
Veni Creator Spiritus
Sanctus
Haec East Causa
Ego sum
Sicut Servus
Te Deum
Ave Maria
Pater Noster
Haec Dies
Alleluiya
Rex Coeli
Sanctus& Benedictus
Deo ConfiteminiNos Qui Vivimus
Sit Gloria
Deus Miserere
Benedicamus
Gaite De La Tor
La Manfredina & La Rotta Della Manfredina
Saltarello 1
Agdir Agaa
Chaitarma
Istampitta Isabella
Saltarello 2
Presens Dies
Coelum Non Animum
Vite Per Me Legi
O Varium Fortune Lubricum
Procurans Odium



Данные фильма:
Video

Format                           : MPEG Video
Bit rate                         : 6 566 Kbps
Nominal bit rate                 : 8 808 Kbps
Width                            : 720 pixels
Height                           : 480 pixels
Display aspect ratio             : 16:9
Frame rate                       : 23.976 fps
Standard                         : NTSC
Color space                      : YUV
Chroma subsampling               : 4:2:0
Bit depth                        : 8 bits
Scan type                        : Progressive
Scan order                       : 2:3 Pulldown
Compression mode                 : Lossy
Bits/(Pixel*Frame)               : 0.792
Stream size                      : 975 MiB (95%)

Audio
ID                               : 128 (0x80)
Format                           : AC-3
Format/Info                      : Audio Coding 3
Bit rate mode                    : Constant
Bit rate                         : 192 Kbps
Channel(s)                       : 2 channels
Sampling rate                    : 48.0 KHz
Bit depth                        : 16 bits
Compression mode                 : Lossy
Stream size                      : 28.5 MiB (3%)

Залито непрерывным архивом в 6-ти частях.
Размер 4,28 ГБ
Продолжительность 1 час 29 минут, запись 2005 года.



Просьба о неработающих ссылках сообщать в ЛС







Категория: Видео | Просмотров: 2925 | Добавил(а): ElenaRR
Теги: средневековая музыка, григорианский хорал, Вокальная музыка, Hortus Musicus, Мустонен | Рейтинг: 1.0/8


Вас может заинтересовать:


Всего комментариев: 2

Комментирует listener | Дата публикации: 2011 Окт 11 в 03:49 |
+1

Большущее спасибо! appl appl appl ax
Спам

Комментирует listener | Дата публикации: 2011 Окт 11 в 12:24 |
+1

Ещё раз спасибо большущее! А простота хоралов - это простота дыхания, простота любви, не отягощённой "левыми" страстями, простота веры. а не суеверия, простота сострадания... И здесь вместо ПРОСТОТА, можно смело подставить КРАСОТА. Спасибо! ax ax ax
Спам
Добавлять комментарии могут только зарегистрированные пользователи. Регистрация займет не больше 3 минут. Не работает ссылка? Напишите об этом в форме обратной связи. Не забудьте приложить ссылку на материал.
[ Регистрация | Вход ]
Важное




Читать IntermezzoTwit в Твиттере


Мы ВКонтакте

Профиль

Суббота 2017 Май 27
01:52

Ваш IP: 54.146.5.196



Яндекс-поиск
Поиск
по заголовкам

по всему сайту
Наша кнопка


Материалы по тегам
Поиск нот
Скачать бесплатно ноты, табы, минусовки, тексты песен, mp3
Поиск бесплатных нот, табов, минусовок, текстов песен и mp3

Copyright: Интермеццо. Интернет-библиотека классической музыки. © 2011 - 2017
Яндекс цитирования Яндекс.Метрика